筋トレ応援団.pdf

 筋トレ応援団.pdf

169abc470372d3972631198c35737350?s=128

Tetsuya Tatsumi

May 17, 2019
Tweet

Transcript

  1. -*/&$MPWBεΩϧ ےτϨԠԉஂ @dokechin

  2. ։ൃͨ͠εΩϧͷ આ໌

  3. Χ΢ϯτΠϯςϯτ • छ໨ʴճ਺Ͱࢦࣔ͢ΔͱΧ΢ϯτΞοϓ͢Δɻɹ ྫʣʮϓογϡΞοϓΛճʯ • ̍෼ؒͷΧ΢ϯτ଎౓Λ<   >͔Βબ΂Δɻ ྫʣʮϓογϡΞοϓΛεϐʔυͰճʯ

    • छ໨͸ʮϓογϡΞοϓʯʮγοτΞοϓʯʮεΫ ϫοτʯͳͲશछ໨ɻ
  4. ϦβϧτΠϯςϯτ • ݄୯ҐͰछ໨͝ͱͷΧ΢ϯτ਺ɺภࠩ஋Λܭࢉɻ -*/&ϓογϡ௨஌͢Δɻྫʣ݄ͷूܭૹͬͯ

  5. ےτϨԠԉஂ#PU • ʮࠓ೥ʯɺʮࠓ݄ʯɺʮࠓिʯɺʮࠓ೔ʯͷΧ΢ϯ τ਺ͷूܭɻ • σΠϦʔɻϚϯεϦʔͷʮάϥϑʯදࣔɻ-*''Ξϓ Ϧέʔγϣϯɻ

  6. $MPWBσϞ

  7. None
  8. ։ൃ͖͔͚ͨͬ͠

  9. ։ൃ͖͔͚ͨͬ͠ • ʮࣃΈ͕͖͘Μʯʹײ໏Λड͚ɺԿ͔࡞Γ͔ͨͬͨ • ։ൃதʹࣅͨεΩϧ͕͋Δ͜ͱ͕൑͚ͬͨΕͲɺ ແࢹͯ͠ೲಘ͍͘·Ͱ࡞ΓࠐΉ • ߴྸऀͷ৸͖ͨΓͷ໰୊ɺࣾձߩݙ͍ͨ͠ʂ

  10. ಛʹྗΛೖΕͨػೳ

  11. #(. • ϑϦʔૉࡐͷ਺ࣈԻ੠Λฤू • ϑϦʔૉࡐͷϧʔϓԻָΛฤू

  12. ਺ࣈͷԻ੠ͷฤू ̍        

               ʜ           ਺ࣈͷಡΈ্͛Ի੠Λ(BSBHF#BOEͰฤू ͯ͠ɺඵͷ௕͞ʹἧ͑Δ
  13. ϧʔϓૉࡐͱ߹੒͢Δ ̍        

     ϧʔϓૉࡐͷ#(.ͱಡΈ্͛Ի੠ΛϛοΫε͢Δ ϧʔϓૉࡐ ϧʔϓૉࡐ
  14. 4PYίϚϯυ • Ի੠ϑΝΠϧͷϝλ৘ใऔಘ soxi input.wav Input File : 'input.wav' Channels

    : 2 Sample Rate : 44100 Precision : 16-bit Duration : 00:00:11.72 = 516797 samples = 878.906 CDDA sectors File Size : 2.07M Bit Rate : 1.41M Sample Encoding: 16-bit Signed Integer PCM
  15. 4PYίϚϯυ • ࿈݁ sox input1.wav input2.wav output.wav

  16. 4PYίϚϯυ • 10ճ܁Γฦ͠ sox input1.wav output.wav repeat 10

  17. 4PYίϚϯυ • 10ඵͰ੾Γग़͠ sox input.wav output.wav trim 0 10

  18. 4PYίϚϯυ • ϛοΫε sox -m input1.wav input2.wav output.wav

  19. 4PYίϚϯυ • 0.2ඵͷແԻϑΝΠϧ࡞੒ sox -c 2 —n output.wav trim 0

    0.2
  20. CQNͰ#(.બͼ • 120bpm 1ඵؒʹ4෼Իූ2ݸɹ 1ඵ1Χ΢ϯτ • 100bpm 1.2ඵؒʹ4෼Իූ2ݸɹ 1.2ඵ1Χ΢ϯτ •

    80bpm 1.5 ඵؒʹ෼Իූݸ 1.5ඵ1Χ΢ϯτ • 60bpm 2ඵؒʹ4෼Իූ2ݸ 2.0ඵ1Χ΢ϯτ ̍ ແԻ  ແԻ  ແԻ  ແԻ  ແԻ CQNϧʔϓૉࡐ CQNϧʔϓૉࡐ
  21. ΞʔΩςΫνϟ

  22. $&, .&44"(*/( "1* -*'' $30/

  23. ۤ࿑ͨ͠఺

  24. .1ඵʹͳΒͳ͍ • wavϑΝΠϧʹͨ͠Βղܾ

  25. ඇಉظϓϩάϥϛϯά • async/await PromiseΛۦ࢖ͯ͠Կͱ͔

  26. ʮෲےʯʮഎےʯೝࣝ͠ͳ͍໰୊ • γοτΞοϓɺόοΫΤΫεςϯγϣϯ

  27. ूܭͰ͖ͳ͍໰୊ • javascriptͷDateΛσʔλϕʔεʹ֨ೲ͠Α͏ ͱ͍ͯͨ͠ • Moment Timezone > var f

    = new moment().tz('asia/tokyo').format(); undefined > f '2019-05-17T07:43:43+09:00' • PostgreSQL (timestamp with time zone)